Login
Username:
Password:
[Signup]
[Recover Account]


Browse Torrents

Poll


You must be logged in to view polls



Latest Torrents
Demon.House.2018.U...
- [Size: 2.76 GB]

UFC.on.ESPN.1.Weig...
- [Size: 260.12 MB]

18+.Back.Roads.201...
- [Size: 1.69 GB]

Beasts.of.No.Natio...
- [Size: 897.77 MB]

18+.Back.Roads.201...
- [Size: 1.15 GB]


Torrent Details For "The.Cloverfield.Paradox.2018.BDRip.XviD.AC3.LLG"

The.Cloverfield.Paradox.2018.BDRip.XviD.AC3.LLG

Download this torrent | Magnet Download
Health:
Seeds: 7
Leechers: 10
Completed: 12 
Last Checked: 12-02-2019 06:04:57
External Torrent
Update Stats



Images Host

Poster
No poster


iMDB
Imdb Picture Original Title: God Particle
Title: The Cloverfield Paradox
Year: 2018
Runtime: 102 minutes
Votes: 275
Rating: 9.1/10
Country: USA
All Genres: Horror, Mystery, Sci-Fi, Thriller
Plot Outline: After a scientific experiment aboard the space station involving a particle accelerator has unexpected results, the astronauts find themselves isolated. Following their horrible discovery, the space station crew must fight for survival.
Director: Julius Onah
Writing By: Oren Uziel,Doug Jung,
Produced By: J.J. Abrams,Bryan Burk,Jon Cohen,Bob Dohrmann,Drew Goddard,Tommy Harper,Matt Reeves,Lindsey Weber,
Music: Bear McCreary
Cast:
Elizabeth Debicki as Jensen
Daniel Brühl as Schmidt
Gugu Mbatha-Raw as Hamilton
Chris O'Dowd as Mundy
Ziyi Zhang as Tam
David Oyelowo as Commander Kiel
John Ortiz as Acosta
Aksel Hennie as Volkov
Roger Davies as Michael
Jordan Rivera as Ayana Age 7
Trailers:
Super Bowl Sneak Peek


Watch-Free-HD     Download

Details
Name:The.Cloverfield.Paradox.2018.BDRip.XviD.AC3.LLG
Description:

Quote:



******************************Thumbnail:**********************

 

******************************Screenshots:********************

 Screenshot 1

 Screenshot 2

 Screenshot 3

 Screenshot 4

 Screenshot 5

 Screenshot 6

 Screenshot 7

 Screenshot 8

 Screenshot 9

 Screenshot 0


******************************************************

The.Cloverfield.Paradox.2018.BDRip.XviD.AC3.LLG.mp4
Format                                   : MPEG-4
Format profile                           : Base Media
Codec ID                                 : isom (isom/iso2/avc1/mp41)
File size                                : 1.13 GiB
Duration                                 : 1 h 41 min
Overall bit rate mode                    : Variable
Overall bit rate                         : 1 588 kb/s

Video
ID                                       : 1
Format                                   : AVC
Format/Info                              : Advanced Video Codec
Format profile                           : [email protected]
Format settings                          : CABAC / 1 Ref Frames
Format settings, CABAC                   : Yes
Format settings, RefFrames               : 1 frame
Codec ID                                 : avc1
Codec ID/Info                            : Advanced Video Coding
Duration                                 : 1 h 41 min
Bit rate mode                            : Variable
Bit rate                                 : 1 201 kb/s
Maximum bit rate                         : 3 600 kb/s
Width                                    : 720 pixels
Height                                   : 304 pixels
Display aspect ratio                     : 2.35:1
Frame rate mode                          : Constant
Frame rate                               : 23.976 (23976/1000) FPS
Color space                              : YUV
Chroma subsampling                       : 4:2:0
Bit depth                                : 8 bits
Scan type                                : Progressive
Bits/(Pixel*Frame)                       : 0.229
Stream size                              : 874 MiB (76%)

Audio
ID                                       : 2
Format                                   : AC-3
Format/Info                              : Audio Coding 3
Commercial name                          : Dolby Digital
Codec ID                                 : ac-3
Duration                                 : 1 h 41 min
Bit rate mode                            : Constant
Bit rate                                 : 384 kb/s
Channel(s)                               : 6 channels
Channel layout                           : L R C LFE Ls Rs
Sampling rate                            : 48.0 kHz
Frame rate                               : 31.250 FPS (1536 SPF)
Bit depth                                : 16 bits
Compression mode                         : Lossy
Stream size                              : 280 MiB (24%)
Title                                    : Surround
Language                                 : English
Service kind                             : Complete Main
Default                                  : Yes
Alternate group                          : 1

********************************************************


Category:Movies > Xvid
Lang:English  English
Total Size:1.16 GB
Info Hash:63f077e486220bf697c2f208826f694c1be90af3
Added By:LifeLongg
Date Added:12-02-2019 03:49:10
Downloads:23

Ratings:Not Yet Rated (Log in to rate it)


Tracker:
udp://tracker.openbittorrent.com:80/announce


File List: 


Comments

No comments still posted

Top
Copyright 2018 DownloadHD -|- Page Generated In 1.041518 secs.
-|- RSS Feed -|- Feed Info