Login
Username:
Password:
[Signup]
[Recover Account]


Browse Torrents

Poll


You must be logged in to view polls



Latest Torrents
A Private War 2018...
- [Size: 2.81 GB]

Overlord 2018 1080...
- [Size: 2.61 GB]

Judge.Judy.S23E143...
- [Size: 112.73 MB]

Bible.Bees.2019.72...
- [Size: 797.57 MB]

Green Book (2018) ...
- [Size: 990.40 MB]


Torrent Details For "Widows 2018 1080p BluRay x264 Dual Audio [Hindi DD 5.1 - English DD 5.1] ESub [MW]"

Widows 2018 1080p BluRay x264 Dual Audio [Hindi DD 5.1 - English DD 5.1] ESub [MW]

Download this torrent | Magnet Download
Health:
Seeds: 19
Leechers: 52
Completed:
Last Checked: 11-02-2019 11:52:02
External Torrent
Update Stats



Images Host

Poster
No poster


Watch-Free-HD     Download

Details
Name:Widows 2018 1080p BluRay x264 Dual Audio [Hindi DD 5.1 - English DD 5.1] ESub [MW]
Description:

 


General
Format                                   : Matroska
Format version                           : Version 4
File size                                : 3.02 GiB
Duration                                 : 2 h 9 min
Overall bit rate                         : 3 340 kb/s

Video
ID                                       : 1
Format                                   : AVC
Format/Info                              : Advanced Video Codec
Format profile                           : [email protected]
Format settings                          : CABAC / 4 Ref Frames
Format settings, CABAC                   : Yes
Format settings, RefFrames               : 4 frames
Codec ID                                 : V_MPEG4/ISO/AVC
Duration                                 : 2 h 9 min
Bit rate                                 : 2 500 kb/s
Width                                    : 1 920 pixels
Height                                   : 808 pixels
Display aspect ratio                     : 2.40:1
Frame rate mode                          : Constant
Frame rate                               : 23.976 (23976/1000) FPS
Color space                              : YUV
Chroma subsampling                       : 4:2:0
Bit depth                                : 8 bits
Scan type                                : Progressive
Bits/(Pixel*Frame)                       : 0.067
Stream size                              : 2.26 GiB (75%)
Writing library                          : x264 core 152 r2851M ba24899

Audio #1
ID                                       : 2
Format                                   : AC-3
Format/Info                              : Audio Coding 3
Commercial name                          : Dolby Digital
Codec ID                                 : A_AC3
Duration                                 : 2 h 9 min
Bit rate mode                            : Constant
Bit rate                                 : 448 kb/s
Channel(s)                               : 6 channels
Channel layout                           : L R C LFE Ls Rs
Sampling rate                            : 48.0 kHz
Frame rate                               : 31.250 FPS (1536 SPF)
Bit depth                                : 16 bits
Compression mode                         : Lossy
Stream size                              : 415 MiB (13%)
Language                                 : Hindi
Service kind                             : Complete Main
Default                                  : Yes
Forced                                   : Yes

Audio #2
ID                                       : 3
Format                                   : AC-3
Format/Info                              : Audio Coding 3
Commercial name                          : Dolby Digital
Codec ID                                 : A_AC3
Duration                                 : 2 h 9 min
Bit rate mode                            : Constant
Bit rate                                 : 384 kb/s
Channel(s)                               : 6 channels
Channel layout                           : L R C LFE Ls Rs
Sampling rate                            : 48.0 kHz
Frame rate                               : 31.250 FPS (1536 SPF)
Bit depth                                : 16 bits
Compression mode                         : Lossy
Stream size                              : 356 MiB (11%)
Language                                 : English
Service kind                             : Complete Main
Default                                  : No
Forced                                   : No

Text #1
ID                                       : 4
Format                                   : VobSub
Muxing mode                              : zlib
Codec ID                                 : S_VOBSUB
Codec ID/Info                            : Picture based subtitle format used on DVDs
Duration                                 : 2 h 5 min
Bit rate                                 : 6 999 b/s
Count of elements                        : 2106
Stream size                              : 6.30 MiB (0%)
Language                                 : English
Default                                  : Yes
Forced                                   : No


Click To View Image

 http://pichub.site/image/krfHu
 http://pichub.site/image/kr4v9
 http://pichub.site/image/krMDR
 http://pichub.site/image/krYgs
 http://pichub.site/image/kranB
 http://pichub.site/image/krOYY

Category:Movies > Hollywood Dub
Lang:Hindi
Total Size:3.02 GB
Info Hash:b2e8c77aa7c60c218bd3e1469708431277b411d9
Added By:Freaky
Date Added:11-02-2019 11:51:46
Downloads:167

Ratings:Not Yet Rated (Log in to rate it)


Tracker:
udp://tracker.coppersurfer.tk:6969/announce


File List: 


Comments

No comments still posted

Top
Copyright 2018 DownloadHD -|- Page Generated In 0.549026 secs.
-|- RSS Feed -|- Feed Info